#TITLE:Battalions;
#SUBTITLE:By young_editer@hotmail.com;
#ARTIST:I;
#TITLETRANSLIT:;
#SUBTITLETRANSLIT:;
#ARTISTTRANSLIT:;
#CREDIT:;
#BANNER:;
#BACKGROUND:;
#LYRICSPATH:;
#CDTITLE:Nepex-Chart.bmp;
#MUSIC:04 Battalions.mp3;
#OFFSET:0.963;
#SAMPLESTART:1.980;
#SAMPLELENGTH:147.280;
#SELECTABLE:YES;
#BPMS:0.000=179.981,340.000=89.991,348.000=179.981,588.000=120.041,588.063=184.001,588.125=120.041;
#STOPS:;
#BGCHANGES:;

//---------------dance-single - Heavy Black Metal----------------
#NOTES:
     dance-single:
     Heavy Black Metal:
     Hard:
     12:
     1.000,1.000,1.000,0.244,1.000:
0000
0000
0000
0000
,
0001
0001
0001
0000
0000
0000
0001
0001
0001
0000
0000
0000
1000
1000
1000
1000
,
0100
0100
0100
0000
0000
0000
0100
0100
0100
0000
0000
0000
0010
0010
0010
0010
,
0001
0001
0001
0000
0000
0000
0001
0001
0001
0000
0000
0000
0010
0010
0010
0010
,
1000
1000
1000
0000
0000
0000
1000
1000
1000
0000
0000
0000
0100
0100
0100
0100
,
0001
0001
0001
0000
0000
0000
0001
0001
0001
0000
0000
0000
1000
1000
1000
1000
,
0100
0100
0100
0000
0000
0000
0100
0100
0100
0000
0000
0000
1000
1000
1000
1000
,
0010
0010
0010
0000
0000
0000
0010
0010
0010
0000
0000
0000
0001
0001
0001
0001
,
0100
0100
0100
0000
0000
0000
0100
0100
0100
0000
0000
0000
0010
0010
0010
0010
,
1000
1000
1000
0000
0000
0000
1000
1000
1000
0000
0000
0000
0100
0100
0100
0100
,
0001
0001
0001
0000
0000
0000
0001
0001
0001
0000
0000
0000
0010
0010
0010
0010
,
0100
0100
0100
0000
0000
0000
0100
0100
0100
0000
0000
0000
0001
0001
0001
0001
,
1000
1000
1000
0000
0000
0000
1000
1000
1000
0000
0000
0000
0010
0010
0010
0010
,
1100
0000
0110
0000
0101
0000
0022
0000
0000
0000
0033
0000
1000
1000
1000
1000
,
0202
0000
0303
0000
0000
0000
0202
0000
0303
0000
0000
0000
0010
0010
0010
0010
,
0202
0303
0011
0011
0000
1100
1100
1100
,
1100
0000
0110
0110
0000
0101
0101
0000
,
2020
0000
3030
0000
0000
0000
2020
0000
3030
0000
0000
0000
0001
0001
0001
0001
,
0220
0000
0330
0000
0000
0000
0220
0000
0330
0000
0000
0000
0010
0010
0010
0010
,
2200
3300
0011
0011
0000
1010
1010
1010
,
0001
0010
0100
1000
0001
1000
0100
0010
,
1001
0000
0101
0000
0000
0000
0110
0000
0000
0000
0000
0000
0010
0010
0010
0010
,
0202
0000
0303
0000
0000
0000
0202
0000
0303
0000
0000
0000
1000
1000
1000
1000
,
0110
0000
0101
0011
0000
0011
0101
1100
,
1010
0000
1100
0110
0000
1010
0011
0000
,
2020
0000
3030
0000
0000
0000
2020
0000
3030
0000
0000
0000
0001
0001
0001
0001
,
2200
0000
3300
0000
0000
0000
2200
0000
3300
0000
0000
0000
0010
0010
0010
0010
,
1100
0000
0011
0101
0000
0101
0011
0000
,
1001
0000
0010
0100
0010
0000
1100
0000
0011
0000
1001
0000
1010
0000
0101
0000
,
0110
0010
0010
0000
1001
0000
0100
0100
0100
0100
0100
0000
1010
0000
0000
0000
,
0001
0001
0001
0000
0110
0000
1000
1000
1000
1000
1000
0000
0011
0000
0000
0000
,
0010
0010
0010
0000
0101
0000
0100
0100
0100
0100
0100
0000
1010
0000
0000
0000
,
0001
0001
0001
0000
0110
0000
1000
1000
1000
1000
1000
0000
0011
0000
0000
0000
,
0100
0100
0100
0000
0011
0000
0010
0010
0010
0010
0010
0000
0101
0000
0000
0000
,
1000
1000
1000
0000
0011
0000
0100
0100
0100
0100
0100
0000
1010
0000
0000
0000
,
0001
0001
0001
0000
0101
0000
0010
0010
0010
0010
0010
0000
1100
0000
0000
0000
,
0001
0001
0001
0000
0110
0000
1000
1000
1000
1000
1001
0101
0000
0000
0011
0000
,
0110
0000
0000
0000
0011
0000
1000
1000
1000
1000
1000
0000
0110
0000
0000
0000
,
0001
0001
0001
0000
1100
0000
0001
0001
0001
0001
0001
0000
0110
0000
0000
0000
,
0100
0100
0100
0000
1001
0000
0010
0010
0010
0010
0010
0000
0011
0000
0000
0000
,
0100
0100
0100
0000
0011
0000
0010
0010
0010
0010
0010
0000
1001
0000
1000
0000
,
0001
0001
0001
0000
1100
0000
0010
0010
0010
0010
0010
0000
0101
0000
0000
0000
,
0100
0100
0100
0000
0011
0000
1000
1000
1000
1000
1000
0000
0011
0000
0000
0000
,
0100
0100
0100
0000
0011
0000
1000
1000
1000
1000
1000
0000
0110
0000
0000
0000
,
0001
1000
0001
1000
0001
0000
0100
0010
0100
0010
0100
0001
1000
0010
1000
0100
,
0022
0000
0033
0000
0010
0100
0010
1000
0100
0010
0100
0010
0001
0100
0010
0001
,
0010
1000
0010
0100
0001
0010
0100
0010
0001
1000
0100
1000
0001
0100
0010
0001
,
0010
0100
0001
0100
0010
0001
0010
1000
0010
0100
1000
0100
0010
1000
0010
0100
,
0010
1000
0010
0100
0010
0100
1000
0100
0010
0100
0001
0100
0001
0010
0100
1000
,
0100
0010
0100
0010
0100
1000
0100
0001
0100
1000
0100
0010
0001
0100
0010
0100
,
1000
0100
0010
1000
0001
0010
0100
1000
0100
0010
0001
0100
0010
0001
0010
0100
,
0010
0100
0010
0001
0010
0100
0001
0100
0010
0001
0010
0100
0001
0100
0010
0001
,
0010
0100
0010
1000
0010
0100
0001
1000
0110
0000
0001
1000
0001
0000
1100
0000
,
0110
0100
0100
0000
1001
0000
0010
0010
0010
0010
0010
0000
0101
0000
0000
0000
,
1000
1000
1000
0000
0110
0000
0001
0001
0001
0001
0001
0000
1100
0000
0000
0000
,
0100
0100
0100
0000
1010
0000
0010
0010
0010
0010
0010
0000
0101
0000
0000
0000
,
1000
1000
1000
0000
0110
0000
0001
0001
0001
0001
0001
0000
1100
0000
1000
0000
,
0010
0010
0010
0000
1100
0000
0100
0100
0100
0100
0100
0000
1010
0000
0000
0000
,
0001
0001
0001
0000
1100
0000
0010
0010
0010
0010
0010
0000
0101
0000
0000
0000
,
1000
1000
1000
0000
1010
0000
0100
0100
0100
0100
0100
0000
0011
0000
0000
0000
,
1000
1000
1000
0000
0110
0000
0001
0001
0001
0001
0001
0100
1100
0000
1000
0000
,
0010
0010
0010
0000
1100
0000
0001
0001
0001
0001
0001
0000
0110
0000
0000
0000
,
1000
1000
1000
0000
0011
0000
1000
1000
1000
1000
1000
0000
0110
0000
0000
0000
,
0010
0010
0010
0000
1001
0000
0100
0100
0100
0100
0100
0000
1100
0000
0000
0000
,
0010
0010
0010
0000
1100
0000
0100
0100
0100
0100
0100
0001
1001
0000
0010
0000
,
1000
1000
1000
0000
0011
0000
0100
0100
0100
0100
0100
0000
1010
0000
0000
0000
,
0010
0010
0010
0000
1100
0000
0001
0001
0001
0001
0001
0000
1100
0000
0000
0000
,
0010
0010
0010
0000
1100
0000
0001
0001
0001
0001
0001
0000
0110
0000
0000
0000
,
1000
0001
1000
0001
1000
0000
0010
0100
0010
0100
0010
1000
0001
0100
0001
0010
,
2200
0000
3300
0000
0100
0010
0100
0001
0010
0100
0010
0100
1000
0010
0100
1000
,
0100
0001
0100
0010
1000
0100
0010
0100
1000
0001
0010
0001
1000
0010
0100
1000
,
0100
0010
1000
0010
0100
1000
0100
0001
0100
0010
0001
0010
0100
0001
0100
0010
,
0100
0001
0100
0010
0100
0010
0001
0010
0100
0010
1000
0010
1000
0100
0010
0001
,
0010
0100
0010
0100
0010
0001
0010
1000
0010
0001
0010
0100
1000
0010
0100
0010
,
0001
0010
0100
0001
1000
0100
0010
0001
0010
0100
1000
0010
0100
1000
0100
0010
,
0100
0010
0100
1000
0100
0010
1000
0010
0100
1000
0100
0010
1000
0010
0100
1000
,
0100
0010
0100
0001
0100
0010
1000
0100
0010
0001
0010
0000
1001
0000
0000
0000
,
1000
0001
0100
0010
0001
0010
0100
0010
1000
0010
0100
0010
1000
0010
0100
0001
,
0100
0010
0001
0010
0100
0010
0001
0010
0100
0010
1000
0010
0100
0010
1000
0100
,
0001
0100
1000
0100
0001
0100
1000
0100
0010
0001
0010
1000
0010
0001
0010
1000
,
0010
0001
0010
0001
0100
0010
0001
0010
1000
0010
0001
0010
0100
0010
0100
0010
,
1000
0010
0100
0001
0100
0010
0001
0010
1000
0010
0100
0001
0100
0010
1000
0010
,
0100
0010
1000
0010
0100
0001
0100
0010
0001
0010
0100
0001
0010
0100
1000
0100
,
0010
0001
0100
0010
0001
0010
0100
0001
0100
0010
0001
0010
0100
0001
0100
0010
,
0001
0010
0100
0010
1000
0100
1000
0010
0100
1000
0100
0010
1000
0100
0010
0100
,
0001
0001
0001
0000
0000
0000
0001
0001
0001
0000
0000
0000
1000
1000
1000
1000
0100
0100
0100
0000
0000
0000
0100
0100
0100
0000
0000
0000
0010
0010
0010
0010
,
0001
0001
0001
0000
0000
0000
0001
0001
0001
0000
0000
0000
0010
0010
0010
0010
1000
1000
1000
0000
0000
0000
1000
1000
1000
0000
0000
0000
0100
0100
0100
0100
,
0100
1000
0010
0100
0010
1000
0001
0100
0010
0001
0010
1000
0010
0100
0001
0010
,
0100
0010
0001
1000
0100
0010
0100
1000
0010
0100
0010
1000
0010
0001
0010
1000
,
0010
0100
0001
0010
0100
0010
0001
0100
0010
0001
0010
1000
0010
0100
0001
0010
,
0100
1000
0100
0010
0100
0001
0100
0010
0001
0100
0001
0100
1010
0000
0000
0000
,
1000
1000
1000
0000
0000
0000
1000
1000
1000
0000
0000
0000
0100
0100
0100
0100
,
0001
0001
0001
0000
0000
0000
0001
0001
0001
0000
0000
0000
0010
0010
0010
0010
,
0100
0100
0100
0000
0000
0000
0100
0100
0100
0000
0000
0000
0001
0001
0001
0001
,
1000
1000
1000
0000
0000
0000
1000
1000
1000
0000
0000
0000
0010
0010
0010
0010
,
0001
0001
0001
0000
0000
0000
0001
0001
0001
0000
0000
0000
1000
1000
1000
1000
,
0100
0100
0100
0000
0000
0000
0100
0100
0100
0000
0000
0000
0010
0010
0010
0010
,
0001
0001
0001
0000
0000
0000
0001
0001
0001
0000
0000
0000
0010
0010
0010
0010
,
1000
1000
1000
0000
0000
0000
1000
1000
1000
0000
0000
0000
0100
0100
0100
0100
,
0011
0000
0110
0000
0000
0000
2200
0000
0000
0000
3300
0000
0001
0001
0001
0001
,
2020
0000
3030
0000
0000
0000
2020
0000
3030
0000
0000
0000
0100
0100
0100
0100
,
2020
3030
1100
1100
0000
0011
0011
0011
,
0011
0000
0110
0110
0000
1010
1010
0000
,
0202
0000
0303
0000
0000
0000
0202
0000
0303
0000
0000
0000
0010
0010
0010
0010
,
2002
0000
3003
0000
0000
0000
2002
0000
3003
0000
0000
0000
1000
1000
1000
1000
,
0202
0303
1010
1010
0000
1100
1100
1100
,
0010
1000
0001
0100
0010
0100
0001
1000
,
0110
0000
0011
0000
0100
0000
1001
0000
0000
0000
0000
0000
1000
1000
1000
1000
,
0022
0000
0033
0000
0000
0000
0022
0000
0033
0000
0000
0000
0100
0100
0100
0100
,
2020
3030
1100
1100
0000
0011
0011
0011
,
0011
0000
0110
0110
0000
1010
1010
0000
,
0202
0000
0303
0000
0000
0000
0202
0000
0303
0000
0000
0000
0001
0001
0001
0001
,
2200
0000
3300
0000
0000
0000
2200
0000
3300
0000
0000
0000
0001
0001
0001
0001
,
2020
3030
0101
0101
0000
0110
0110
0110
,
1001
0000
0100
0001
0100
0000
0011
0000
0101
0000
1000
0100
1000
0000
0011
0000
,
0110
0100
0100
0000
1001
0000
0010
0010
0010
0010
0010
0000
0101
0000
0000
0000
,
1000
1000
1000
0000
0110
0000
0001
0001
0001
0001
0001
0000
1100
0000
0000
0000
,
0100
0100
0100
0000
1010
0000
0010
0010
0010
0010
0010
0000
0101
0000
0000
0000
,
1000
1000
1000
0000
0110
0000
0001
0001
0001
0001
0001
0010
1100
0000
1000
0000
,
0010
0010
0010
0000
1100
0000
0100
0100
0100
0100
0100
0000
1010
0000
0000
0000
,
0001
0001
0001
0000
1100
0000
0010
0010
0010
0010
0010
0000
0101
0000
0000
0000
,
1000
1000
1000
0000
1010
0000
0100
0100
0100
0100
0100
0000
0011
0000
0000
0000
,
1000
1000
1000
0000
0110
0000
0001
0001
0001
0001
0001
0100
1100
0000
1000
0000
,
0010
0010
0010
0000
1100
0000
0001
0001
0001
0001
0001
0000
0110
0000
0000
0000
,
1000
1000
1000
0000
0011
0000
1000
1000
1000
1000
1000
0000
0110
0000
0000
0000
,
0010
0010
0010
0000
1001
0000
0100
0100
0100
0100
0100
0000
1100
0000
0000
0000
,
0010
0010
0010
0000
1100
0000
0100
0100
0100
0100
0100
0001
1001
0000
0010
0000
,
1000
1000
1000
0000
0011
0000
0100
0100
0100
0100
0100
0000
1010
0000
0000
0000
,
0010
0010
0010
0000
1100
0000
0001
0001
0001
0001
0001
0000
1100
0000
0000
0000
,
0010
0010
0010
0000
1100
0000
0001
0001
0001
0001
0001
0000
0110
0000
0000
0000
,
1000
0001
1000
0001
1000
0000
0010
0100
0010
0100
0010
1000
0001
0100
0001
0010
,
2200
0000
3300
0000
0100
0010
0100
0001
0010
0100
0010
0100
1000
0010
0100
1000
,
0100
0001
0100
0010
1000
0100
0010
0100
1000
0001
0010
0001
1000
0010
0100
1000
,
0100
0010
1000
0010
0100
1000
0100
0001
0100
0010
0001
0010
0100
0001
0100
0010
,
0100
0001
0100
0010
0100
0010
0001
0010
0100
0010
1000
0010
1000
0100
0010
0001
,
0010
0100
0010
0100
0010
0001
0010
1000
0010
0001
0010
0100
1000
0010
0100
0010
,
0001
0010
0100
0001
1000
0100
0010
0001
0010
0100
1000
0010
0100
1000
0100
0010
,
0100
0010
0100
1000
0100
0010
1000
0010
0100
1000
0100
0010
1000
0010
0100
1000
,
0100
0010
0100
0001
0100
0010
1000
0100
0010
0001
0010
0001
0100
0010
1000
0010
,
1000
0001
0100
0010
0001
0010
0100
0010
1000
0010
0100
0010
1000
0010
0100
0001
,
0100
0010
0001
0010
0100
0010
0001
0010
0100
0010
1000
0010
0100
0010
1000
0100
,
0001
0100
1000
0100
0001
0100
1000
0100
0010
0001
0010
1000
0010
0001
0010
1000
,
0010
0001
0010
0001
0100
0010
0001
0010
1000
0010
0001
0010
0100
0010
0100
0010
,
1000
0010
0100
0001
0100
0010
0001
0010
1000
0010
0100
0001
0100
0010
1000
0010
,
0100
0010
1000
0010
0100
0001
0100
0010
0001
0010
0100
0001
0010
0100
1000
0100
,
0010
0001
0100
0010
0001
0010
0100
0001
0100
0010
0001
0010
0100
0001
0100
0010
,
0001
0010
0100
0010
1000
0100
1000
0010
0100
1000
0100
0010
1000
0100
0010
0100
,
0001
0001
0001
0001
0000
0000
1000
1000
1000
1000
0000
0000
0010
0010
0010
0010
0000
0000
0100
0100
0100
0100
0000
0000
,
0001
0001
0001
0001
0000
0000
1000
1000
1000
1000
0000
0000
0010
0010
0010
0010
0000
0000
0101
0000
1100
0000
0110
0000
,
1000
1000
1000
1000
0000
0000
0100
0100
0100
0100
0000
0000
0001
0001
0001
0001
0000
0000
1000
1000
1000
1000
0000
0000
,
0010
0010
0010
0010
0000
0000
1000
1000
1000
1000
0000
0000
0100
0100
0100
0100
0000
0000
0011
0000
1001
0000
0101
0000
,
1100
1000
1000
1000
0000
0000
0001
0001
0001
0001
0000
0000
0010
0010
0010
0010
0000
0000
1000
1000
1000
1000
0000
0000
,
0100
0100
0100
0100
0000
0000
0001
0001
0001
0001
0000
0000
1010
0000
0000
0000
0101
0000
0000
0000
0110
0000
1100
0000
,
0001
0001
0001
0001
0000
0000
0100
0100
0100
0100
0000
0000
0010
0010
0010
0010
0000
0000
1000
1000
1000
1000
0000
0000
,
0001
0001
0001
0001
0000
0000
1000
1000
1000
1000
0000
0000
0110
0000
0000
0000
1001
0000
0000
0000
0011
0000
0101
0000
,
1000
1000
1000
1000
0000
0000
0001
0001
0001
0001
0000
0000
0100
0100
0100
0100
0000
0000
0010
0010
0010
0010
0000
0000
,
1000
1000
1000
1000
0000
0000
0001
0001
0001
0001
0000
0000
0011
0000
0000
0000
1001
0000
0000
0000
1010
0000
0101
0000
,
1000
1000
1000
1000
0000
0000
0010
0010
0010
0010
0000
0000
0100
0100
0100
0100
0000
0000
1000
1000
1000
1000
0000
0000
,
0001
0001
0001
0001
0000
0000
0100
0100
0100
0100
0000
0000
0010
0010
0010
0010
0000
0000
0110
0000
1001
0000
0101
0000
,
0001
0001
0001
1001
0001
0001
0101
0001
1001
0011
0001
0001
,
0101
0001
0011
1001
0001
0001
0101
0001
1001
0011
0001
0001
,
0101
0001
0011
1001
0001
0001
0101
0001
1001
0011
0001
0001
,
0101
0001
0011
1001
0001
0001
0101
0001
1001
0011
0000
0000
,
0000
1000
1000
1100
1000
1000
1010
1000
1100
1001
1000
1000
,
1010
1000
1001
1100
1000
1000
1010
1000
1100
1001
1000
1000
,
1010
0000
1000
0000
1001
0000
1100
0000
1000
0000
1000
0000
1010
0000
0000
1000
0100
0010
1001
0000
0000
0000
0000
0000
,
0001
0001
0001
0001
0000
0000
0010
0010
0010
0010
0000
0000
1000
1000
1000
1000
0000
0000
0001
0001
0001
0001
0000
0000
,
0100
0100
0100
0100
0000
0000
0001
0001
0001
0001
0000
0000
1100
0000
0000
0000
0011
0000
0000
0000
1001
0000
1010
0000
,
0011
0001
0001
0001
0000
0000
1000
1000
1000
1000
0000
0000
0100
0100
0100
0100
0000
0000
0001
0001
0001
0001
0000
0000
,
0010
0010
0010
0010
0000
0000
1000
1000
1000
1000
0001
0100
0001
0000
0000
0000
1010
0000
0101
0000
0110
0000
0001
0000
,
1000
1000
1000
1000
0000
0000
0010
0010
0010
0010
0000
0000
0100
0100
0100
0100
0000
0000
0001
0001
0001
0001
0000
0000
,
1000
1000
1000
1000
0000
0000
0001
0001
0001
0001
0000
0000
1100
0000
0000
0000
0011
0000
0000
0000
0101
0000
1010
0000
,
0101
0001
0001
0001
0000
0000
1000
1000
1000
1000
0000
0000
0010
0010
0010
0010
0000
0000
0100
0100
0100
0100
0000
0000
,
0001
0001
0001
0001
0000
0000
1000
1000
1000
1000
0000
0000
0001
0000
1000
0001
1000
0000
0101
0000
1010
0000
0110
0000
,
0110
0100
0101
0110
0100
0100
1100
0100
0110
0101
0100
0100
,
1100
0100
0101
0110
0100
0100
1100
0100
0110
0101
0100
0100
,
1100
0100
0101
0110
0100
0100
1100
0100
0110
0101
0100
0100
,
1100
0100
0101
0110
0100
0100
1100
0100
0110
0101
0000
0000
,
0000
0010
0110
1010
0010
0010
0011
0010
1010
0110
0010
0010
,
0011
0010
0110
1010
0010
0010
0011
0010
1010
0110
0010
0010
,
0011
0010
0110
1010
0010
0010
0011
0010
1010
0110
0010
0010
,
0011
0001
0001
0001
0001
0001
0001
0000
0000
1010
0000
0000
0110
0000
0000
0000
0000
0000
0110
0000
0011
0000
1100
0000
,
1001
0000
0000
0000
0000
0000
0000
0000
1000
0000
0000
0000
0000
0000
0000
0000
1000
0000
0000
0000
0000
0000
0000
0000
1000
0000
0000
0000
0000
0000
0000
0000
1000
0000
0000
0000
0000
0000
0000
0000
1000
0000
0000
0000
0000
0000
0000
0000
1000
0000
0000
0000
0000
0000
0000
0000
1000
0000
0000
0000
0000
0000
0000
0000
1000
0000
0000
0000
0000
0000
0000
0000
1000
0000
0000
0000
0000
0000
0000
0000
0000
0000
0000
0000
0000
0000
0000
0000
0000
0000
0000
0000
0000
0000
0000
0000
0001
0000
0000
0000
0000
0000
0100
0000
0000
0000
0000
0000
0001
0000
0000
0000
0000
0000
0100
0000
0000
0000
0000
0000
0001
0000
0000
0000
0000
0000
0100
0000
0000
0000
0000
0000
0001
0000
0000
0000
0000
0000
0100
0000
0000
0000
0000
0000
1001
0000
0000
0000
0000
0000
0000
0000
0000
0000
0000
0000
0000
0000
0000
0000
0000
0000
0000
0000
0000
0000
0000
0000
0000
0000
0000
0000
0000
0000
0000
0000
0000
0000
0000
0000
0000
0000
0000
0000
0000
0000
0000
0000
0000
0000
0000
0000
,
1100
1000
1000
1000
1000
1000
1000
0000
0000
0110
0000
0000
1001
0000
0000
0000
0000
0000
0110
0000
1100
0000
0011
0000
,
1001
0001
0001
0001
0001
0001
0001
0001
0001
0001
0000
0000
0011
0000
1100
0000
0110
0000
1001
0000
0000
0000
0000
0000
,
0011
0001
0001
0001
0001
0001
0001
0000
0000
0110
0000
0000
1001
0000
0000
0000
0000
0000
0110
0000
0011
0000
1100
0000
,
1001
0000
0000
0000
0000
0000
0000
0000
1000
0000
0000
0000
0000
0000
0000
0000
1000
0000
0000
0000
0000
0000
0000
0000
1000
0000
0000
0000
0000
0000
0000
0000
1000
0000
0000
0000
0000
0000
0000
0000
1000
0000
0000
0000
0000
0000
0000
0000
1000
0000
0000
0000
0000
0000
0000
0000
1000
0000
0000
0000
0000
0000
0000
0000
1000
0000
0000
0000
0000
0000
0000
0000
1000
0000
0000
0000
0000
0000
0000
0000
0000
0000
0000
0000
0000
0000
0000
0000
0000
0000
0000
0000
0000
0000
0000
0000
0001
0000
0000
0000
0000
0000
0100
0000
0000
0000
0000
0000
0001
0000
0000
0000
0000
0000
0100
0000
0000
0000
0000
0000
0001
0000
0000
0000
0000
0000
0100
0000
0000
0000
0000
0000
0001
0000
0000
0000
0000
0000
0100
0000
0000
0000
0000
0000
1001
0000
0000
0000
0000
0000
0000
0000
0000
0000
0000
0000
0000
0000
0000
0000
0000
0000
0000
0000
0000
0000
0000
0000
0000
0000
0000
0000
0000
0000
0000
0000
0000
0000
0000
0000
0000
0000
0000
0000
0000
0000
0000
0000
0000
0000
0000
0000
,
1010
0010
0010
0010
0010
0010
0010
0000
0000
1001
0000
0000
0110
0000
0000
0000
0000
0000
1001
0000
1010
0000
0101
0000
,
0110
0100
0100
0100
0100
0100
0100
0100
0100
0100
0000
0000
1010
0000
0101
0000
1100
0000
0110
0000
0000
0000
0000
0000
;

//---------------dance-single - Copied from Heavy Bl----------------
#NOTES:
     dance-single:
     Copied from Heavy Bl:
     Challenge:
     14:
     1.000,1.000,1.000,0.255,1.000:  // measure 1
0000
0000
0000
0000
,  // measure 2
0101
0001
0001
0000
1100
0000
0001
0001
0011
0000
0000
0000
1001
1000
1000
1000
,  // measure 3
0110
0100
0100
0000
1001
0000
0100
0100
1100
0000
0000
0000
0110
0010
0010
0010
,  // measure 4
1001
0001
0001
0000
0110
0000
0001
0001
1001
0000
0000
0000
0011
0010
0010
0010
,  // measure 5
1100
1000
1000
0000
0101
0000
1000
1000
1010
0000
0000
0000
0110
0100
0100
0100
,  // measure 6
0011
0001
0001
0000
0110
0000
0001
0001
0011
0000
0000
0000
1100
1000
1000
1000
,  // measure 7
0101
0100
0100
0000
1010
0000
0100
0100
0110
0000
0000
0000
1100
1000
1000
1000
,  // measure 8
0011
0010
0010
0000
1001
0000
0010
0010
0110
0000
0000
0000
1001
0001
0001
0001
,  // measure 9
0110
0100
0100
0000
0011
0000
0100
0100
1100
0000
0000
0000
0110
0010
0010
0010
,  // measure 10
1100
1000
1000
0000
0101
0000
1000
1000
1001
0000
0000
0000
0110
0100
0100
0100
,  // measure 11
0011
0001
0001
0000
1100
0000
0001
0001
0101
0000
0000
0000
0011
0010
0010
0010
,  // measure 12
1100
0100
0100
0000
1001
0000
0100
0100
0110
0000
0000
0000
0101
0001
0001
0001
,  // measure 13
1010
1000
1000
0000
0110
0000
1000
1000
1001
0000
0000
0000
0110
0010
0010
0010
,  // measure 14
1101
0000
0110
0000
0111
0000
0022
0000
1100
0000
0033
0000
1100
1000
1000
1000
,  // measure 15
0212
0000
0303
0000
1010
0000
0202
0000
1313
0000
0000
0000
0011
0010
0010
0010
,  // measure 16
1202
0303
0111
0111
0110
1110
1110
1110
,  // measure 17
1110
0000
0111
0111
0000
1101
1101
0000
,  // measure 18
2020
0000
3030
0000
0101
0000
2020
0000
3131
0000
0000
0000
0011
0001
0001
0001
,  // measure 19
1220
0000
0330
0000
1001
0000
0220
0000
1331
0000
0000
0000
0110
0010
0010
0010
,  // measure 20
2201
3300
0111
0111
0110
1011
1011
1011
,  // measure 21
0101
0010
0101
1000
0011
1000
0101
0010
,  // measure 22
1011
0000
0101
0000
1000
0000
0220
0000
0330
0000
0000
0000
0011
0010
0010
0010
,  // measure 23
1202
0000
0303
0000
1010
0000
0202
0000
1313
0000
0000
0000
1001
1000
1000
1000
,  // measure 24
0111
0000
1101
0111
1100
1011
1101
1011
,  // measure 25
1110
0000
1101
0111
1001
1110
0111
0000
,  // measure 26
2120
0000
3030
0000
0110
0000
2020
0000
3131
0000
0000
0000
1001
0001
0001
0001
,  // measure 27
2210
0000
3300
0000
0101
0000
2200
0000
3311
0000
0000
0000
0011
0010
0010
0010
,  // measure 28
1101
0000
1011
0111
1100
0111
1011
0000
,  // measure 29
1101
0000
0011
1100
0011
0000
1110
0000
0111
0000
1101
0000
1011
0000
0111
0000
,  // measure 30
0110
0010
0010
0000
1001
0000
0100
0100
0100
0100
0100
0000
1010
0000
0000
0000
,  // measure 31
0001
0001
0001
0000
0110
0000
1000
1000
1000
1000
1000
0000
0011
0000
0000
0000
,  // measure 32
0010
0010
0010
0000
0101
0000
0100
0100
0100
0100
0100
0000
1010
0000
0000
0000
,  // measure 33
0001
0001
0001
0000
0110
0000
1000
1000
1000
1000
1000
0000
0011
0000
0000
0000
,  // measure 34
0100
0100
0100
0000
0011
0000
0010
0010
0010
0010
0010
0000
0101
0000
0000
0000
,  // measure 35
1000
1000
1000
0000
0011
0000
0100
0100
0100
0100
0100
0000
1010
0000
0000
0000
,  // measure 36
0001
0001
0001
0000
0101
0000
0010
0010
0010
0010
0010
0000
1100
0000
0000
0000
,  // measure 37
0001
0001
0001
0000
0110
0000
1000
1000
1000
1000
1001
0101
0000
0000
0011
0000
,  // measure 38
0110
0000
0000
0000
0011
0000
1000
1000
1000
1000
1000
0000
0110
0000
0000
0000
,  // measure 39
0001
0001
0001
0000
1100
0000
0001
0001
0001
0001
0001
0000
0110
0000
0000
0000
,  // measure 40
0100
0100
0100
0000
1001
0000
0010
0010
0010
0010
0010
0000
0011
0000
0000
0000
,  // measure 41
0100
0100
0100
0000
0011
0000
0010
0010
0010
0010
0010
0000
1001
0000
1000
0000
,  // measure 42
0001
0001
0001
0000
1100
0000
0010
0010
0010
0010
0010
0000
0101
0000
0000
0000
,  // measure 43
0100
0100
0100
0000
0011
0000
1000
1000
1000
1000
1000
0000
0011
0000
0000
0000
,  // measure 44
0100
0100
0100
0000
0011
0000
1000
1000
1000
1000
1000
0000
0110
0000
0000
0000
,  // measure 45
0001
1000
0001
1000
0001
0000
0100
0010
0100
0010
0100
0001
1000
0010
1000
0100
,  // measure 46
0022
0000
0033
0000
0011
0100
0010
1000
0100
0010
0100
0010
1001
0100
0010
0001
,  // measure 47
0010
1000
0010
0100
1001
0010
0100
0010
0001
1000
0100
1000
0011
0100
0010
0001
,  // measure 48
0010
0100
0001
0100
1010
0001
0010
1000
0010
0100
1000
0100
0011
1000
0010
0100
,  // measure 49
0010
1000
0010
0100
0011
0100
1000
0100
0010
0100
0001
0100
1001
0010
0100
1000
,  // measure 50
0100
0010
0100
0010
0101
1000
0100
0001
0100
1000
0100
0010
1001
0100
0010
0100
,  // measure 51
1000
0100
0010
1000
0101
0010
0100
1000
0100
0010
0001
0100
1010
0001
0010
0100
,  // measure 52
0010
0100
0010
0001
1010
0100
0001
0100
0010
0001
0010
0100
1001
0100
0010
0001
,  // measure 53
0010
0100
0010
1000
0011
0100
0001
1000
0110
0000
0001
1000
0001
0000
1100
0000
,  // measure 54
0110
0100
0100
0000
1001
0000
0010
0010
0010
0010
0010
0000
0101
0000
0000
0000
,  // measure 55
1000
1000
1000
0000
0110
0000
0001
0001
0001
0001
0001
0000
1100
0000
0000
0000
,  // measure 56
0100
0100
0100
0000
1010
0000
0010
0010
0010
0010
0010
0000
0101
0000
0000
0000
,  // measure 57
1000
1000
1000
0000
0110
0000
0001
0001
0001
0001
0001
0000
1100
0000
1000
0000
,  // measure 58
0010
0010
0010
0000
1100
0000
0100
0100
0100
0100
0100
0000
1010
0000
0000
0000
,  // measure 59
0001
0001
0001
0000
1100
0000
0010
0010
0010
0010
0010
0000
0101
0000
0000
0000
,  // measure 60
1000
1000
1000
0000
1010
0000
0100
0100
0100
0100
0100
0000
0011
0000
0000
0000
,  // measure 61
1000
1000
1000
0000
0110
0000
0001
0001
0001
0001
0001
0100
1100
0000
1000
0000
,  // measure 62
0010
0010
0010
0000
1100
0000
0001
0001
0001
0001
0001
0000
0110
0000
0000
0000
,  // measure 63
1000
1000
1000
0000
0011
0000
1000
1000
1000
1000
1000
0000
0110
0000
0000
0000
,  // measure 64
0010
0010
0010
0000
1001
0000
0100
0100
0100
0100
0100
0000
1100
0000
0000
0000
,  // measure 65
0010
0010
0010
0000
1100
0000
0100
0100
0100
0100
0100
0001
1001
0000
0010
0000
,  // measure 66
1000
1000
1000
0000
0011
0000
0100
0100
0100
0100
0100
0000
1010
0000
0000
0000
,  // measure 67
0010
0010
0010
0000
1100
0000
0001
0001
0001
0001
0001
0000
1100
0000
0000
0000
,  // measure 68
0010
0010
0010
0000
1100
0000
0001
0001
0001
0001
0001
0000
0110
0000
0000
0000
,  // measure 69
1000
0001
1000
0001
1000
0000
0010
0100
0010
0100
0010
1000
0001
0100
0001
0010
,  // measure 70
2200
0000
3300
0000
1100
0010
0100
0001
0010
0100
0010
0100
1001
0010
0100
1000
,  // measure 71
0100
0001
0100
0010
1001
0100
0010
0100
1000
0001
0010
0001
1100
0010
0100
1000
,  // measure 72
0100
0010
1000
0010
0101
1000
0100
0001
0100
0010
0001
0010
1100
0001
0100
0010
,  // measure 73
0100
0001
0100
0010
1100
0010
0001
0010
0100
0010
1000
0010
1001
0100
0010
0001
,  // measure 74
0010
0100
0010
0100
1010
0001
0010
1000
0010
0001
0010
0100
1001
0010
0100
0010
,  // measure 75
0001
0010
0100
0001
1010
0100
0010
0001
0010
0100
1000
0010
0101
1000
0100
0010
,  // measure 76
0100
0010
0100
1000
0101
0010
1000
0010
0100
1000
0100
0010
1001
0010
0100
1000
,  // measure 77
0100
0010
0100
0001
1100
0010
1000
0100
0010
0001
0010
0000
1001
0000
0000
0000
,  // measure 78
1000
0001
0100
0010
1001
0010
0100
0010
1000
0010
0100
0010
1001
0010
0100
0001
,  // measure 79
0100
0010
0001
0010
1100
0010
0001
0010
0100
0010
1000
0010
0101
0010
1000
0100
,  // measure 80
0001
0100
1000
0100
0011
0100
1000
0100
0010
0001
0010
1000
0110
0001
0010
1000
,  // measure 81
0010
0001
0010
0001
1100
0010
0001
0010
1000
0010
0001
0010
1100
0010
0100
0010
,  // measure 82
1000
0010
0100
0001
1100
0010
0001
0010
1000
0010
0100
0001
1100
0010
1000
0010
,  // measure 83
0100
0010
1000
0010
1100
0001
0100
0010
0001
0010
0100
0001
1010
0100
1000
0100
,  // measure 84
0010
0001
0100
0010
1001
0010
0100
0001
0100
0010
0001
0010
1100
0001
0100
0010
,  // measure 85
0001
0010
0100
0010
1001
0100
1000
0010
0100
1000
0100
0010
1001
0100
0010
0100
,  // measure 86
0011
0001
0001
0000
0000
0000
0001
0001
0001
0000
0000
0000
1000
1000
1000
1000
0100
0100
0100
0000
0000
0000
0100
0100
0100
0000
0000
0000
0010
0010
0010
0010
,  // measure 87
0001
0001
0001
0000
0000
0000
0001
0001
0001
0000
0000
0000
0010
0010
0010
0010
1000
1000
1000
0000
0000
0000
1000
1000
1000
0000
0000
0000
0100
0100
0100
0100
,  // measure 88
0100
1000
0010
0100
0010
1000
0001
0100
0010
0001
0010
1000
0010
0100
0001
0010
,  // measure 89
0100
0010
0001
1000
0100
0010
0100
1000
0010
0100
0010
1000
0010
0001
0010
1000
,  // measure 90
0010
0100
0001
0010
0100
0010
0001
0100
0010
0001
0010
1000
0010
0100
0001
0010
,  // measure 91
0101
1100
0101
0010
1100
0011
1100
0010
0011
1100
0011
0100
1010
0000
0000
0000
,  // measure 92
1001
1000
1000
0000
0110
0000
1000
1000
1001
0000
0000
0000
1100
0100
0100
0100
,  // measure 93
0011
0001
0001
0000
1010
0000
0001
0001
0101
0000
0000
0000
0011
0010
0010
0010
,  // measure 94
0101
0100
0100
0000
1100
0000
0100
0100
0110
0000
0000
0000
0101
0001
0001
0001
,  // measure 95
1010
1000
1000
0000
0101
0000
1000
1000
1001
0000
0000
0000
0110
0010
0010
0010
,  // measure 96
0101
0001
0001
0000
0011
0000
0001
0001
0101
0000
0000
0000
1100
1000
1000
1000
,  // measure 97
0110
0100
0100
0000
1001
0000
0100
0100
0101
0000
0000
0000
0011
0010
0010
0010
,  // measure 98
1001
0001
0001
0000
1010
0000
0001
0001
0101
0000
0000
0000
0110
0010
0010
0010
,  // measure 99
1100
1000
1000
0000
0110
0000
1000
1000
1010
0000
0000
0000
0101
0100
0100
0100
,  // measure 100
1011
0000
1110
0000
1001
0000
2220
0000
0001
0000
3330
0000
1001
0001
0001
0001
,  // measure 101
2120
0000
3030
0000
1100
0000
2020
0000
3131
0000
0000
0000
0110
0100
0100
0100
,  // measure 102
2021
3030
1110
1110
0110
0111
0111
0111
,  // measure 103
0111
0000
1101
1101
0110
1011
1011
0000
,  // measure 104
1202
0000
0303
0000
1001
0000
0202
0000
1313
0000
0000
0000
0011
0010
0010
0010
,  // measure 105
2102
0000
3003
0000
1100
0000
2002
0000
3113
0000
0000
0000
1001
1000
1000
1000
,  // measure 106
0212
0303
1011
1011
0110
1110
1110
1110
,  // measure 107
0011
1000
0011
0100
1010
0100
0011
1000
,  // measure 108
0110
0000
0011
0000
0100
0000
1001
0000
0000
0000
0000
0000
1100
1000
1000
1000
,  // measure 109
0122
0000
0033
0000
1001
0000
0022
0000
1133
0000
0000
0000
0101
0100
0100
0100
,  // measure 110
2021
3030
1110
1110
0110
1011
1011
1011
,  // measure 111
1011
0000
0111
0111
1001
1101
1101
0000
,  // measure 112
0212
0000
0303
0000
1100
0000
0202
0000
1313
0000
0000
0000
0101
0001
0001
0001
,  // measure 113
2210
0000
3300
0000
0110
0000
2200
0000
3311
0000
0000
0000
0101
0001
0001
0001
,  // measure 114
2120
3030
0111
0111
0110
1110
1110
1110
,  // measure 115
1001
0000
0100
0001
0100
0000
0011
0000
0101
0000
1000
0100
1000
0000
0011
0000
,  // measure 116
0110
0100
0100
0000
1001
0000
0010
0010
0010
0010
0010
0000
0101
0000
0000
0000
,  // measure 117
1000
1000
1000
0000
0110
0000
0001
0001
0001
0001
0001
0000
1100
0000
0000
0000
,  // measure 118
0100
0100
0100
0000
1010
0000
0010
0010
0010
0010
0010
0000
0101
0000
0000
0000
,  // measure 119
1000
1000
1000
0000
0110
0000
0001
0001
0001
0001
0001
0010
1100
0000
1000
0000
,  // measure 120
0010
0010
0010
0000
1100
0000
0100
0100
0100
0100
0100
0000
1010
0000
0000
0000
,  // measure 121
0001
0001
0001
0000
1100
0000
0010
0010
0010
0010
0010
0000
0101
0000
0000
0000
,  // measure 122
1000
1000
1000
0000
1010
0000
0100
0100
0100
0100
0100
0000
0011
0000
0000
0000
,  // measure 123
1000
1000
1000
0000
0110
0000
0001
0001
0001
0001
0001
0100
1100
0000
1000
0000
,  // measure 124
0010
0010
0010
0000
1100
0000
0001
0001
0001
0001
0001
0000
0110
0000
0000
0000
,  // measure 125
1000
1000
1000
0000
0011
0000
1000
1000
1000
1000
1000
0000
0110
0000
0000
0000
,  // measure 126
0010
0010
0010
0000
1001
0000
0100
0100
0100
0100
0100
0000
1100
0000
0000
0000
,  // measure 127
0010
0010
0010
0000
1100
0000
0100
0100
0100
0100
0100
0001
1001
0000
0010
0000
,  // measure 128
1000
1000
1000
0000
0011
0000
0100
0100
0100
0100
0100
0000
1010
0000
0000
0000
,  // measure 129
0010
0010
0010
0000
1100
0000
0001
0001
0001
0001
0001
0000
1100
0000
0000
0000
,  // measure 130
0010
0010
0010
0000
1100
0000
0001
0001
0001
0001
0001
0000
0110
0000
0000
0000
,  // measure 131
1000
0001
1000
0001
1000
0000
0010
0100
0010
0100
0010
1000
0001
0100
0001
0010
,  // measure 132
2200
0000
3300
0000
1100
0010
0100
0001
0010
0100
0010
0100
1001
0010
0100
1000
,  // measure 133
0100
0001
0100
0010
1001
0100
0010
0100
1000
0001
0010
0001
1100
0010
0100
1000
,  // measure 134
0100
0010
1000
0010
0101
1000
0100
0001
0100
0010
0001
0010
1100
0001
0100
0010
,  // measure 135
0100
0001
0100
0010
1100
0010
0001
0010
0100
0010
1000
0010
1001
0100
0010
0001
,  // measure 136
0010
0100
0010
0100
1010
0001
0010
1000
0010
0001
0010
0100
1001
0010
0100
0010
,  // measure 137
0001
0010
0100
0001
1010
0100
0010
0001
0010
0100
1000
0010
0101
1000
0100
0010
,  // measure 138
0100
0010
0100
1000
0101
0010
1000
0010
0100
1000
0100
0010
1001
0010
0100
1000
,  // measure 139
0100
0010
0100
0001
1100
0010
1000
0100
0010
0001
0010
0001
1100
0010
1000
0010
,  // measure 140
1000
0001
0100
0010
1001
0010
0100
0010
1000
0010
0100
0010
1001
0010
0100
0001
,  // measure 141
0100
0010
0001
0010
1100
0010
0001
0010
0100
0010
1000
0010
0101
0010
1000
0100
,  // measure 142
0001
0100
1000
0100
0011
0100
1000
0100
0010
0001
0010
1000
0110
0001
0010
1000
,  // measure 143
0010
0001
0010
0001
1100
0010
0001
0010
1000
0010
0001
0010
1100
0010
0100
0010
,  // measure 144
1000
0010
0100
0001
1100
0010
0001
0010
1000
0010
0100
0001
1100
0010
1000
0010
,  // measure 145
0100
0010
1000
0010
1100
0001
0100
0010
0001
0010
0100
0001
1010
0100
1000
0100
,  // measure 146
0010
0001
0100
0010
1001
0010
0100
0001
0100
0010
0001
0010
1100
0001
0100
0010
,  // measure 147
0001
0010
0100
0010
1001
0100
1000
0010
0100
1000
0100
0010
1001
0100
0010
0100
,  // measure 148
0001
0001
0001
0001
0000
0000
1000
1000
1000
1000
0000
0000
0010
0010
0010
0010
0000
0000
0100
0100
0100
0100
0000
0000
,  // measure 149
0001
0001
0001
0001
0000
0000
1000
1000
1000
1000
0000
0000
0010
0010
0010
0010
0000
0000
0101
0000
1100
0000
0110
0000
,  // measure 150
1000
1000
1000
1000
0000
0000
0100
0100
0100
0100
0000
0000
0001
0001
0001
0001
0000
0000
1000
1000
1000
1000
0000
0000
,  // measure 151
0010
0010
0010
0010
0000
0000
1000
1000
1000
1000
0000
0000
0100
0100
0100
0100
0000
0000
0011
0000
1001
0000
0101
0000
,  // measure 152
1100
1000
1000
1000
0000
0000
0001
0001
0001
0001
0000
0000
0110
0010
0010
0010
0000
0000
1000
1000
1000
1000
0000
0000
,  // measure 153
0100
0100
0100
0100
0000
0000
0001
0001
0001
0001
0000
0000
1010
0000
0000
0000
0101
0000
0000
0000
0110
0000
1100
0000
,  // measure 154
0001
0001
0001
0001
0000
0000
0100
0100
0100
0100
0000
0000
0011
0010
0010
0010
0000
0000
1000
1000
1000
1000
0000
0000
,  // measure 155
0001
0001
0001
0001
0000
0000
1000
1000
1000
1000
0000
0000
0110
0000
0000
0000
0011
0000
0000
0000
1001
0000
0101
0000
,  // measure 156
1000
1000
1000
1000
0000
0000
0001
0001
0001
0001
0000
0000
1100
0100
0100
0100
0000
0000
0010
0010
0010
0010
0000
0000
,  // measure 157
1000
1000
1000
1000
0000
0000
0001
0001
0001
0001
0000
0000
1100
0000
0000
0000
0110
0000
0000
0000
1001
0000
0101
0000
,  // measure 158
1000
1000
1000
1000
0000
0000
0010
0010
0010
0010
0000
0000
0101
0100
0100
0100
0000
0000
1000
1000
1000
1000
0000
0000
,  // measure 159
0001
0001
0001
0001
0000
0000
0100
0100
0100
0100
0000
0000
1010
0010
0010
0010
0000
0000
0110
0000
1001
0000
0101
0000
,  // measure 160
0001
0001
0011
1001
0001
0001
0101
0001
1001
0011
0001
0001
,  // measure 161
0101
0001
0011
1001
0001
0001
0101
0001
1001
0011
0001
0001
,  // measure 162
0101
0001
0011
1001
0001
0001
0101
0001
1001
0011
0001
0001
,  // measure 163
0101
0001
0011
1001
0001
0001
0101
0001
1001
0011
0000
0000
,  // measure 164
0000
1000
1001
1100
1000
1000
1010
1000
1100
1001
1000
1000
,  // measure 165
1010
1000
1001
1100
1000
1000
1010
1000
1100
1001
1000
1000
,  // measure 166
1010
0000
1000
0000
1001
0000
1100
0000
1000
0000
1000
0000
1010
0000
0000
1000
0100
0010
1001
0000
0000
0000
0000
0000
,  // measure 167
0001
0001
0001
0001
0000
0000
0010
0010
0010
0010
0000
0000
1100
1000
1000
1000
0000
0000
0001
0001
0001
0001
0000
0000
,  // measure 168
0100
0100
0100
0100
0000
0000
0001
0001
0001
0001
0000
0000
1001
0000
0000
0000
0110
0000
0000
0000
1001
0000
1010
0000
,  // measure 169
0011
0001
0001
0001
0000
0000
1000
1000
1000
1000
0000
0000
0110
0100
0100
0100
0000
0000
0001
0001
0001
0001
0000
0000
,  // measure 170
0010
0010
0010
0010
0000
0000
1000
1000
1000
1000
0001
0100
0011
0000
0000
0000
1010
0000
0101
0000
0110
0000
0001
0000
,  // measure 171
1000
1000
1000
1000
0000
0000
0010
0010
0010
0010
0000
0000
0101
0100
0100
0100
0000
0000
0001
0001
0001
0001
0000
0000
,  // measure 172
1000
1000
1000
1000
0000
0000
0001
0001
0001
0001
0000
0000
1100
1000
1000
1000
0011
0000
0000
0000
0101
0000
1010
0000
,  // measure 173
0101
0001
0001
0001
0000
0000
1000
1000
1000
1000
0000
0000
1010
0010
0010
0010
0000
0000
0100
0100
0100
0100
0000
0000
,  // measure 174
0001
0001
0001
0001
0000
0000
1000
1000
1000
1000
0000
0000
0011
0000
1000
0001
1000
0000
0101
0000
1010
0000
0110
0000
,  // measure 175
0110
0100
0101
0110
0100
0100
1100
0100
0110
0101
0100
0100
,  // measure 176
1100
0100
0101
0110
0100
0100
1100
0100
0110
0101
0100
0100
,  // measure 177
1100
0100
0101
0110
0100
0100
1100
0100
0110
0101
0100
0100
,  // measure 178
1100
0100
0101
0110
0100
0100
1100
0100
0110
0101
0000
0000
,  // measure 179
0000
0010
0110
1010
0010
0010
0011
0010
1010
0110
0010
0010
,  // measure 180
0011
0010
0110
1010
0010
0010
0011
0010
1010
0110
0010
0010
,  // measure 181
0011
0010
0110
1010
0010
0010
0011
0010
1010
0110
0010
0010
,  // measure 182
0011
0001
0001
0001
0001
0001
0001
0000
0000
1010
0000
0000
0110
0000
0000
0000
0000
0000
0110
0000
0011
0000
1100
0000
,  // measure 183
1001
0000
0000
0000
0000
0000
0000
0000
1000
0000
0000
0000
0000
0000
0000
0000
1000
0000
0000
0000
0000
0000
0000
0000
1000
0000
0000
0000
0000
0000
0000
0000
1000
0000
0000
0000
0000
0000
0000
0000
1000
0000
0000
0000
0000
0000
0000
0000
1010
0000
0000
0000
0000
0000
0000
0000
1000
0000
0000
0000
0000
0000
0000
0000
1000
0000
0000
0000
0000
0000
0000
0000
1000
0000
0000
0000
0000
0000
0000
0000
0000
0000
0000
0000
0000
0000
0000
0000
0000
0000
0000
0000
0000
0000
0000
0000
0001
0000
0000
0000
0000
0000
0100
0000
0000
0000
0000
0000
0001
0000
0000
0000
0000
0000
0100
0000
0000
0000
0000
0000
0001
0000
0000
0000
0000
0000
0100
0000
0000
0000
0000
0000
0001
0000
0000
0000
0000
0000
0100
0000
0000
0000
0000
0000
1001
0000
0000
0000
0000
0000
0000
0000
0000
0000
0000
0000
0000
0000
0000
0000
0000
0000
0000
0000
0000
0000
0000
0000
0000
0000
0000
0000
0000
0000
0000
0000
0000
0000
0000
0000
0000
0000
0000
0000
0000
0000
0000
0000
0000
0000
0000
0000
,  // measure 184
1000
1000
1000
1000
1000
1000
1100
0000
0000
0110
0000
0000
1001
0000
0000
0000
0000
0000
0110
0000
1100
0000
0011
0000
,  // measure 185
1001
0001
0001
0001
0001
0001
0101
0001
0001
0001
0000
0000
0011
0000
1100
0000
0110
0000
1001
0000
0000
0000
0000
0000
,  // measure 186
0011
0001
0001
0001
0001
0001
1001
0000
0000
0110
0000
0000
1001
0000
0000
0000
0000
0000
0110
0000
0011
0000
1100
0000
,  // measure 187
1001
0000
0000
0000
0000
0000
0000
0000
1000
0000
0000
0000
0000
0000
0000
0000
1000
0000
0000
0000
0000
0000
0000
0000
1000
0000
0000
0000
0000
0000
0000
0000
1000
0000
0000
0000
0000
0000
0000
0000
1000
0000
0000
0000
0000
0000
0000
0000
1010
0000
0000
0000
0000
0000
0000
0000
1000
0000
0000
0000
0000
0000
0000
0000
1000
0000
0000
0000
0000
0000
0000
0000
1000
0000
0000
0000
0000
0000
0000
0000
0000
0000
0000
0000
0000
0000
0000
0000
0000
0000
0000
0000
0000
0000
0000
0000
0001
0000
0000
0000
0000
0000
0100
0000
0000
0000
0000
0000
0001
0000
0000
0000
0000
0000
0100
0000
0000
0000
0000
0000
0001
0000
0000
0000
0000
0000
0100
0000
0000
0000
0000
0000
0001
0000
0000
0000
0000
0000
0100
0000
0000
0000
0000
0000
1001
0000
0000
0000
0000
0000
0000
0000
0000
0000
0000
0000
0000
0000
0000
0000
0000
0000
0000
0000
0000
0000
0000
0000
0000
0000
0000
0000
0000
0000
0000
0000
0000
0000
0000
0000
0000
0000
0000
0000
0000
0000
0000
0000
0000
0000
0000
0000
,  // measure 188
1010
0010
0010
0010
0010
0010
0110
0000
0000
1001
0000
0000
0110
0000
0000
0000
0000
0000
1001
0000
1010
0000
0101
0000
,  // measure 189
0110
0100
0100
0100
0100
0100
0101
0100
0100
0100
0000
0000
1010
0000
0101
0000
1100
0000
0110
0000
0000
0000
0000
0000
;

//---------------dance-single - Copied from Heavy Bl----------------
#NOTES:
     dance-single:
     Copied from Heavy Bl:
     Medium:
     11:
     1.000,1.000,1.000,0.244,1.000:
0000
0000
0000
0000
,
0001
0010
0100
0000
0000
0000
0100
0010
0001
0000
0000
0000
1000
0001
1000
0001
,
0100
0010
0100
0000
0000
0000
0010
0100
0010
0000
0000
0000
0010
1000
0010
1000
,
0001
0010
0100
0000
0000
0000
0100
0001
0010
0000
0000
0000
0010
0001
0010
0001
,
1000
0100
1000
0000
0000
0000
0100
1000
0100
0000
0000
0000
0001
0100
0001
0100
,
0010
0001
0010
0000
0000
0000
0001
0010
0001
0000
0000
0000
1000
0001
1000
0001
,
0100
0010
0100
0000
0000
0000
0010
0100
0010
0000
0000
0000
1000
0100
1000
0100
,
0010
0001
0010
0000
0000
0000
0001
0010
0001
0000
0000
0000
0001
0100
0001
0100
,
0010
0100
0010
0000
0000
0000
0100
0010
0100
0000
0000
0000
0010
0100
0010
0100
,
1000
0001
1000
0000
0000
0000
1000
0001
1000
0000
0000
0000
0100
0010
0100
0010
,
0001
0100
0001
0000
0000
0000
0001
0100
0001
0000
0000
0000
0010
0001
0010
0001
,
0100
1000
0100
0000
0000
0000
0100
1000
0100
0000
0000
0000
0001
0100
0001
0100
,
1000
0010
1000
0000
0000
0000
1000
0010
1000
0000
0000
0000
0010
0001
0010
0001
,
1100
0000
0110
0000
0101
0000
0022
0000
0000
0000
0033
0000
1000
0100
0010
1000
,
0202
0000
0303
0000
0000
0000
0202
0000
0303
0000
0000
0000
0001
0100
0010
1000
,
0202
0303
0011
0011
0000
1100
1100
1100
,
1100
0000
0110
0110
0000
0101
0101
0000
,
2020
0000
3030
0000
0000
0000
2020
0000
3030
0000
0000
0000
0001
1000
0001
1000
,
0220
0000
0330
0000
0000
0000
0220
0000
0330
0000
0000
0000
0010
0010
0010
0010
,
2200
3300
0011
0011
0000
1010
1010
1010
,
0001
0010
0100
1000
0001
1000
0100
0010
,
1001
0000
0101
0000
0000
0000
0110
0000
0000
0000
0000
0000
0100
0001
1000
0010
,
0202
0000
0303
0000
0000
0000
0202
0000
0303
0000
0000
0000
1000
0100
0010
0001
,
0110
0000
0101
0011
0000
0011
0101
1100
,
1010
0000
1100
0110
0000
1010
0011
0000
,
2020
0000
3030
0000
0000
0000
2020
0000
3030
0000
0000
0000
0001
0100
1000
0010
,
2200
0000
3300
0000
0000
0000
2200
0000
3300
0000
0000
0000
0010
1000
0001
0010
,
1100
0000
0011
0101
0000
0101
0011
0000
,
1001
0000
0010
0100
0010
0000
1100
0000
0011
0000
1001
0000
1010
0000
0101
0000
,
0110
1000
0010
0000
1001
0000
0100
0001
0100
0010
1000
0000
1010
0000
0000
0000
,
0001
1000
0001
0000
0110
0000
1000
0100
0010
0100
1000
0000
0011
0000
0000
0000
,
0010
1000
0010
0000
0101
0000
0100
0010
0100
1000
0100
0000
1010
0000
0000
0000
,
0001
0100
0010
0000
0110
0000
1000
0001
0100
0010
1000
0000
0011
0000
0000
0000
,
0100
0010
0001
0000
0011
0000
0100
0010
0001
0010
1000
0000
0101
0000
0000
0000
,
1000
0010
0100
0000
0011
0000
1000
0100
0010
0100
0001
0000
1010
0000
0000
0000
,
0001
1000
0100
0000
0101
0000
0010
0100
0010
0001
0010
0000
1100
0000
0000
0000
,
1000
0001
0010
0000
0110
0000
1000
0100
0010
1000
0100
0000
0000
0000
0011
0000
,
0110
0000
0000
0000
0011
0000
1000
0001
1000
0010
1000
0000
0110
0000
0000
0000
,
0001
0010
1000
0000
1100
0000
0010
0001
1000
0010
1000
0000
0110
0000
0000
0000
,
0100
0010
0001
0000
1001
0000
0010
0100
0001
0010
1000
0000
0011
0000
0000
0000
,
0100
0001
1000
0000
0011
0000
0001
0010
0100
0010
0001
0000
1001
0000
1000
0000
,
0100
0010
0001
0000
1100
0000
0010
1000
0010
0100
0010
0000
0101
0000
0000
0000
,
0100
1000
0100
0000
0011
0000
1000
0001
1000
0100
1000
0000
0011
0000
0000
0000
,
0100
0001
1000
0000
0011
0000
1000
0100
0010
0001
1000
0000
0110
0000
0000
0000
,
0001
1000
0001
1000
0001
0000
0100
0010
0100
0010
0100
0001
1000
0010
1000
0100
,
0022
0000
0033
0000
0010
0100
0010
1000
0100
0010
0100
0010
0001
0100
0010
0001
,
0010
1000
0010
0100
0001
0010
0100
0010
0001
1000
0100
1000
0001
0100
0010
0001
,
0010
0100
0001
0100
0010
0001
0010
1000
0010
0100
1000
0100
0010
1000
0010
0100
,
0010
1000
0010
0100
0010
0100
1000
0100
0010
0100
0001
0100
0001
0010
0100
1000
,
0100
0010
0100
0010
0100
1000
0100
0001
0100
1000
0100
0010
0001
0100
0010
0100
,
1000
0100
0010
1000
0001
0010
0100
1000
0100
0010
0001
0100
0010
0001
0010
0100
,
0010
0100
0010
0001
0010
0100
0001
0100
0010
0001
0010
0100
0001
0100
0010
0001
,
0010
0100
0010
1000
0010
0100
0001
1000
0110
0000
0001
1000
0001
0000
1100
0000
,
0110
0001
0100
0000
1001
0000
0010
0001
1000
0010
1000
0000
0101
0000
0000
0000
,
1000
0001
1000
0000
0110
0000
0001
1000
0100
0010
0001
0000
1100
0000
0000
0000
,
0100
0001
0100
0000
1010
0000
0010
0001
0010
1000
0010
0000
0101
0000
0000
0000
,
1000
0010
0001
0000
0110
0000
0001
1000
0010
0100
0001
0000
1100
0000
1000
0000
,
0010
0001
0010
0000
1100
0000
0100
0010
0001
0100
0001
0000
1010
0000
0000
0000
,
0001
0010
0100
0000
1100
0000
0010
0001
0010
1000
0010
0000
0101
0000
0000
0000
,
1000
0100
0001
0000
1010
0000
0100
0001
0100
0010
0100
0000
0011
0000
0000
0000
,
1000
0100
1000
0000
0110
0000
0001
0010
0100
1000
0001
0000
1100
0000
1000
0000
,
0010
1000
0010
0000
1100
0000
1000
0001
0010
0100
0001
0000
0110
0000
0000
0000
,
1000
0001
1000
0000
0011
0000
0010
1000
0100
1000
0001
0000
0110
0000
0000
0000
,
1000
0010
0100
0000
1001
0000
0010
0100
0010
0100
0010
0000
1100
0000
0000
0000
,
0010
0001
0010
0000
1100
0000
0100
0001
0010
0100
0010
0000
1001
0000
0010
0000
,
1000
0001
1000
0000
0011
0000
0100
0001
0100
0010
0100
0000
1010
0000
0000
0000
,
0010
0100
0001
0000
1100
0000
1000
0001
0100
0001
0010
0000
1100
0000
0000
0000
,
0010
0001
0010
0000
1100
0000
1000
0100
0010
0001
1000
0000
0110
0000
0000
0000
,
1000
0001
1000
0001
1000
0000
0010
0100
0010
0100
0010
1000
0001
0100
0001
0010
,
2200
0000
3300
0000
0100
0010
0100
0001
0010
0100
0010
0100
1000
0010
0100
1000
,
0100
0001
0100
0010
1000
0100
0010
0100
1000
0001
0010
0001
1000
0010
0100
1000
,
0100
0010
1000
0010
0100
1000
0100
0001
0100
0010
0001
0010
0100
0001
0100
0010
,
0100
0001
0100
0010
0100
0010
0001
0010
0100
0010
1000
0010
1000
0100
0010
0001
,
0010
0100
0010
0100
0010
0001
0010
1000
0010
0001
0010
0100
1000
0010
0100
0010
,
0001
0010
0100
0001
1000
0100
0010
0001
0010
0100
1000
0010
0100
1000
0100
0010
,
0100
0010
0100
1000
0100
0010
1000
0010
0100
1000
0100
0010
1000
0010
0100
1000
,
0100
0010
0100
0001
0100
0010
1000
0100
0010
0001
0010
0000
1001
0000
0000
0000
,
1000
0001
0100
0010
0001
0010
0100
0010
1000
0010
0100
0010
1000
0010
0100
0001
,
0100
0010
0001
0010
0100
0010
0001
0010
0100
0010
1000
0010
0100
0010
1000
0100
,
0001
0100
1000
0100
0001
0100
1000
0100
0010
0001
0010
1000
0010
0001
0010
1000
,
0010
0001
0010
0001
0100
0010
0001
0010
1000
0010
0001
0010
0100
0010
0100
0010
,
1000
0010
0100
0001
0100
0010
0001
0010
1000
0010
0100
0001
0100
0010
1000
0010
,
0100
0010
1000
0010
0100
0001
0100
0010
0001
0010
0100
0001
0010
0100
1000
0100
,
0010
0001
0100
0010
0001
0010
0100
0001
0100
0010
0001
0010
0100
0001
0100
0010
,
0001
0010
0100
0010
1000
0100
1000
0010
0100
1000
0100
0010
1000
0100
0010
0100
,
0001
0010
0001
0000
0000
0000
0010
0001
0010
0000
0000
0000
1000
0010
1000
0010
0100
0001
0100
0000
0000
0000
0100
0001
0100
0000
0000
0000
0010
0100
0010
0100
,
0001
1000
0001
0000
0000
0000
0001
1000
0001
0000
0000
0000
0010
1000
0010
1000
0100
0001
0100
0000
0000
0000
0001
0100
0001
0000
0000
0000
0100
0010
0100
1000
,
0100
1000
0010
0100
0010
1000
0001
0100
0010
0001
0010
1000
0010
0100
0001
0010
,
0100
0010
0001
1000
0100
0010
0100
1000
0010
0100
0010
1000
0010
0001
0010
1000
,
0010
0100
0001
0010
0100
0010
0001
0100
0010
0001
0010
1000
0010
0100
0001
0010
,
0100
1000
0100
0010
0100
0001
0100
0010
0001
0100
0001
0100
1010
0000
0000
0000
,
1000
0100
0010
0000
0000
0000
0010
0100
1000
0000
0000
0000
0100
0010
0100
1000
,
0001
0010
0001
0000
0000
0000
0001
0010
0001
0000
0000
0000
0010
1000
0010
0001
,
0100
0010
0100
0000
0000
0000
0100
0010
0100
0000
0000
0000
0001
0010
0100
0001
,
1000
0100
1000
0000
0000
0000
1000
0001
1000
0000
0000
0000
0010
1000
0010
0100
,
0001
0010
0001
0000
0000
0000
0001
0010
0001
0000
0000
0000
1000
0001
0100
0010
,
0100
1000
0100
0000
0000
0000
0100
1000
0100
0000
0000
0000
1000
0010
0100
0010
,
0001
1000
0001
0000
0000
0000
0001
1000
0001
0000
0000
0000
0010
0100
0010
0100
,
1000
0001
1000
0000
0000
0000
1000
0001
1000
0000
0000
0000
0100
0010
0100
1000
,
0011
0000
0110
0000
0000
0000
2200
0000
0000
0000
3300
0000
0001
0010
0001
0100
,
2020
0000
3030
0000
0000
0000
2020
0000
3030
0000
0000
0000
0100
0001
0010
0100
,
2020
3030
1100
1100
0000
0011
0011
0011
,
0011
0000
0110
0110
0000
1010
1010
0000
,
0202
0000
0303
0000
0000
0000
0202
0000
0303
0000
0000
0000
1000
0010
0001
0010
,
2002
0000
3003
0000
0000
0000
2002
0000
3003
0000
0000
0000
1000
0001
0010
1000
,
0202
0303
1010
1010
0000
1100
1100
1100
,
0010
1000
0001
0100
0010
0100
0001
1000
,
0110
0000
0011
0000
0100
0000
1001
0000
0000
0000
0000
0000
1000
0001
1000
0100
,
0022
0000
0033
0000
0000
0000
0022
0000
0033
0000
0000
0000
1000
0001
0010
0100
,
2020
3030
1100
1100
0000
0011
0011
0011
,
0011
0000
0110
0110
0000
1010
1010
0000
,
0202
0000
0303
0000
0000
0000
0202
0000
0303
0000
0000
0000
1000
0010
0100
0001
,
2200
0000
3300
0000
0000
0000
2200
0000
3300
0000
0000
0000
0001
1000
0001
0100
,
2020
3030
0101
0101
0000
0110
0110
0110
,
1001
0000
0100
0001
0100
0000
0011
0000
0101
0000
1000
0100
1000
0000
0011
0000
,
0110
1000
0001
0000
1001
0000
0010
1000
0001
0010
0001
0000
0101
0000
0000
0000
,
1000
0010
0100
0000
0110
0000
0001
1000
0001
0010
0001
0000
1100
0000
0000
0000
,
0100
0001
0100
0000
1010
0000
0010
1000
0001
0010
0100
0000
0101
0000
0000
0000
,
1000
0001
1000
0000
0110
0000
0100
0001
0010
0100
0001
0000
1100
0000
1000
0000
,
0010
1000
0001
0000
1100
0000
0100
0001
0010
0100
1000
0000
1010
0000
0000
0000
,
0001
0010
0100
0000
1100
0000
1000
0010
0100
0010
0001
0000
0101
0000
0000
0000
,
1000
0001
0100
0000
1010
0000
0100
1000
0010
0100
0001
0000
0011
0000
0000
0000
,
1000
0001
0010
0000
0110
0000
0001
0100
0001
0010
0001
0000
1100
0000
1000
0000
,
0010
0100
0010
0000
1100
0000
0001
1000
0100
0010
0001
0000
0110
0000
0000
0000
,
0001
1000
0100
0000
0011
0000
0010
1000
0100
1000
0010
0000
0110
0000
0000
0000
,
0010
0001
0100
0000
1001
0000
0100
0001
0010
0100
1000
0000
1100
0000
0000
0000
,
0010
0001
0010
0000
1100
0000
0100
0001
0010
0100
1000
0000
1001
0000
0010
0000
,
1000
0001
0010
0000
0011
0000
0100
1000
0010
0100
1000
0000
1010
0000
0000
0000
,
0100
0010
0001
0000
1100
0000
0010
0001
0100
0001
0010
0000
1100
0000
0000
0000
,
0100
0001
0010
0000
1100
0000
0010
0100
0010
0001
0100
0000
0110
0000
0000
0000
,
1000
0001
1000
0001
1000
0000
0010
0100
0010
0100
0010
1000
0001
0100
0001
0010
,
2200
0000
3300
0000
0100
0010
0100
0001
0010
0100
0010
0100
1000
0010
0100
1000
,
0100
0001
0100
0010
1000
0100
0010
0100
1000
0001
0010
0001
1000
0010
0100
1000
,
0100
0010
1000
0010
0100
1000
0100
0001
0100
0010
0001
0010
0100
0001
0100
0010
,
0100
0001
0100
0010
0100
0010
0001
0010
0100
0010
1000
0010
1000
0100
0010
0001
,
0010
0100
0010
0100
0010
0001
0010
1000
0010
0001
0010
0100
1000
0010
0100
0010
,
0001
0010
0100
0001
1000
0100
0010
0001
0010
0100
1000
0010
0100
1000
0100
0010
,
0100
0010
0100
1000
0100
0010
1000
0010
0100
1000
0100
0010
1000
0010
0100
1000
,
0100
0010
0100
0001
0100
0010
1000
0100
0010
0001
0010
0001
0100
0010
1000
0010
,
1000
0001
0100
0010
0001
0010
0100
0010
1000
0010
0100
0010
1000
0010
0100
0001
,
0100
0010
0001
0010
0100
0010
0001
0010
0100
0010
1000
0010
0100
0010
1000
0100
,
0001
0100
1000
0100
0001
0100
1000
0100
0010
0001
0010
1000
0010
0001
0010
1000
,
0010
0001
0010
0001
0100
0010
0001
0010
1000
0010
0001
0010
0100
0010
0100
0010
,
1000
0010
0100
0001
0100
0010
0001
0010
1000
0010
0100
0001
0100
0010
1000
0010
,
0100
0010
1000
0010
0100
0001
0100
0010
0001
0010
0100
0001
0010
0100
1000
0100
,
0010
0001
0100
0010
0001
0010
0100
0001
0100
0010
0001
0010
0100
0001
0100
0010
,
0001
0010
0100
0010
1000
0100
1000
0010
0100
1000
0100
0010
1000
0100
0010
0100
,
0001
0010
0001
0010
0000
0000
1000
0100
1000
0100
0000
0000
0010
0100
0010
0100
0000
0000
0001
0100
0001
0100
0000
0000
,
0001
1000
0001
1000
0000
0000
1000
0010
1000
0010
0000
0000
0010
1000
0010
1000
0000
0000
0101
0000
1100
0000
0110
0000
,
0001
1000
0001
1000
0000
0000
0100
1000
0100
1000
0000
0000
0001
0010
0001
0010
0000
0000
1000
0001
1000
0001
0000
0000
,
0010
0100
0010
0100
0000
0000
1000
0100
0010
0001
0000
0000
0100
1000
0100
0010
0000
0000
0011
0000
1001
0000
0101
0000
,
1100
0010
1000
0100
0000
0000
0001
0100
0001
0010
0000
0000
0010
0001
0010
0100
0000
0000
0100
1000
0010
1000
0000
0000
,
0100
0010
0100
1000
0000
0000
0001
0100
0010
1000
0000
0000
1010
0000
0000
0000
0101
0000
0000
0000
0110
0000
1100
0000
,
0100
0001
0010
0001
0000
0000
0100
1000
0010
0100
0000
0000
0010
0100
0001
0010
0000
0000
1000
0001
0100
0010
0000
0000
,
0001
0010
0100
1000
0000
0000
1000
0100
0010
0001
0000
0000
0110
0000
0000
0000
1001
0000
0000
0000
0011
0000
0101
0000
,
1000
0010
1000
0100
0000
0000
0001
1000
0010
0100
0000
0000
0100
0001
0010
0100
0000
0000
0010
0001
0010
0100
0000
0000
,
1000
0100
0010
0001
0000
0000
0001
0100
0010
1000
0000
0000
0011
0000
0000
0000
1001
0000
0000
0000
1010
0000
0101
0000
,
1000
0100
0010
0001
0000
0000
0010
0100
0010
0001
0000
0000
0001
0100
0010
1000
0000
0000
1000
0100
0010
0001
0000
0000
,
0001
0100
0001
0010
0000
0000
0100
1000
0010
0001
0000
0000
0010
0100
1000
0010
0000
0000
0110
0000
1001
0000
0101
0000
,
0010
0000
0000
0100
1001
0000
0000
0000
0100
0000
0000
1000
0101
0000
0000
0000
,
1001
0000
0000
0100
0011
0000
0000
0000
0100
0000
0000
1000
0110
0000
0000
0000
,
0010
0000
0000
1000
0110
0000
0000
0000
1100
0000
0000
1000
0011
0000
0000
0000
,
0010
0000
0000
0010
1100
0000
0000
0000
1000
0000
0000
0100
0011
0000
0000
0000
,
1000
0000
0000
0001
0110
0000
0000
0000
0001
0000
0000
1000
0011
0000
0000
0000
,
1000
0000
0000
0100
0011
0000
0000
0000
0001
0000
0000
0100
1001
0000
0000
0000
,
0001
0000
0000
0000
0000
0000
0000
0000
0000
0001
0000
0000
1100
0000
0000
0000
0000
0000
0000
0000
0000
0000
0000
0000
0010
0000
0000
0000
0000
0000
1000
0000
0100
0000
0010
0000
1001
0000
0000
0000
0000
0000
0000
0000
0000
0000
0000
0000
,
0001
1000
0001
0100
0000
0000
0010
0100
0010
0001
0000
0000
1000
0100
0010
1000
0000
0000
0001
0100
0010
0001
0000
0000
,
0100
0001
0010
0100
0000
0000
0001
1000
0100
0001
0000
0000
1100
0000
0000
0000
0011
0000
0000
0000
1001
0000
1010
0000
,
0011
0100
0001
1000
0000
0000
1000
0010
1000
0001
0000
0000
0100
0010
1000
0100
0000
0000
0001
0010
0100
0001
0000
0000
,
0010
0001
0010
0100
0000
0000
1000
0010
1000
0100
0001
0100
0001
0000
0000
0000
1010
0000
0101
0000
0110
0000
0001
0000
,
1000
0100
0010
1000
0000
0000
0010
1000
0001
0010
0000
0000
1000
0100
0010
0001
0000
0000
0100
0001
0010
1000
0000
0000
,
1000
0001
0100
0010
0000
0000
0001
1000
0100
0010
0000
0000
1100
0000
0000
0000
0011
0000
0000
0000
0101
0000
1010
0000
,
0101
0010
1000
0001
0000
0000
1000
0001
1000
0100
0000
0000
0010
0001
0010
1000
0000
0000
0100
0010
0100
1000
0000
0000
,
0001
0010
0001
0100
0000
0000
1000
0010
1000
0100
0000
0000
0001
0000
1000
0001
1000
0000
0101
0000
1010
0000
0110
0000
,
0110
0000
0000
0001
0110
0000
0000
0000
1000
0000
0000
0010
1100
0000
0000
0000
,
0001
0000
0000
0100
1010
0000
0000
0000
1000
0000
0000
0010
0110
0000
0000
0000
,
0101
0000
0000
0001
1001
0000
0000
0000
0100
0000
0000
0100
0110
0000
0000
0000
,
0010
0000
0000
1000
1100
0000
0000
0000
0001
0000
0000
0100
0101
0000
0000
0000
,
0100
0000
0000
0010
1010
0000
0000
0000
0010
0000
0000
1000
1100
0000
0000
0000
,
0001
0000
0000
0010
1010
0000
0000
0000
0011
0000
0000
0010
1010
0000
0000
0000
,
0001
0000
0000
0010
1010
0000
0000
0000
0001
0000
0000
1000
1001
0000
0000
0000
,
0001
0100
0010
0100
0001
0100
0001
0000
0000
1010
0000
0000
0110
0000
0000
0000
0000
0000
0110
0000
0011
0000
1100
0000
,
1000
0000
0000
0000
0000
0000
0000
0000
0010
0000
0000
0000
0000
0000
0000
0000
0100
0000
0000
0000
0000
0000
0000
0000
0001
0000
0000
0000
0000
0000
0000
0000
0100
0000
0000
0000
0000
0000
0000
0000
0001
0000
0000
0000
0000
0000
0000
0000
0010
0000
0000
0000
0000
0000
0000
0000
0001
0000
0000
0000
0000
0000
0000
0000
0100
0000
0000
0000
0000
0000
0000
0000
0001
0000
0000
0000
0000
0000
0000
0000
0000
0000
0000
0000
0000
0000
0000
0000
0000
0000
0000
0000
0000
0000
0000
0000
0001
0000
0000
0000
0000
0000
0100
0000
0000
0000
0000
0000
0001
0000
0000
0000
0000
0000
0100
0000
0000
0000
0000
0000
0001
0000
0000
0000
0000
0000
0100
0000
0000
0000
0000
0000
0001
0000
0000
0000
0000
0000
0100
0000
0000
0000
0000
0000
0001
0000
0000
0000
0000
0000
0000
0000
0000
0000
0000
0000
0000
0000
0000
0000
0000
0000
0000
0000
0000
0000
0000
0000
0000
0000
0000
0000
0000
0000
0000
0000
0000
0000
0000
0000
0000
0000
0000
0000
0000
0000
0000
0000
0000
0000
0000
0000
,
1000
0001
0010
0100
1000
0100
0010
0000
0000
0110
0000
0000
1001
0000
0000
0000
0000
0000
0110
0000
1100
0000
0011
0000
,
1000
0010
0100
0010
0001
0010
0100
0010
0001
0010
0000
0000
0011
0000
1100
0000
0110
0000
1001
0000
0000
0000
0000
0000
,
0001
1000
0100
0001
0100
1000
0001
0000
0000
0110
0000
0000
1001
0000
0000
0000
0000
0000
0110
0000
0011
0000
1100
0000
,
1000
0000
0000
0000
0000
0000
0000
0000
0100
0000
0000
0000
0000
0000
0000
0000
0010
0000
0000
0000
0000
0000
0000
0000
1000
0000
0000
0000
0000
0000
0000
0000
0100
0000
0000
0000
0000
0000
0000
0000
0010
0000
0000
0000
0000
0000
0000
0000
1000
0000
0000
0000
0000
0000
0000
0000
0010
0000
0000
0000
0000
0000
0000
0000
0001
0000
0000
0000
0000
0000
0000
0000
0100
0000
0000
0000
0000
0000
0000
0000
0000
0000
0000
0000
0000
0000
0000
0000
0000
0000
0000
0000
0000
0000
0000
0000
0001
0000
0000
0000
0000
0000
0100
0000
0000
0000
0000
0000
0001
0000
0000
0000
0000
0000
0100
0000
0000
0000
0000
0000
0001
0000
0000
0000
0000
0000
0100
0000
0000
0000
0000
0000
0001
0000
0000
0000
0000
0000
0100
0000
0000
0000
0000
0000
1000
0000
0000
0000
0000
0000
0000
0000
0000
0000
0000
0000
0000
0000
0000
0000
0000
0000
0000
0000
0000
0000
0000
0000
0000
0000
0000
0000
0000
0000
0000
0000
0000
0000
0000
0000
0000
0000
0000
0000
0000
0000
0000
0000
0000
0000
0000
0000
,
1000
0100
0001
0010
0100
1000
0010
0000
0000
1001
0000
0000
0110
0000
0000
0000
0000
0000
1001
0000
1010
0000
0101
0000
,
0010
0001
1000
0010
0100
0001
0010
0100
0010
0001
0000
0000
1010
0000
0101
0000
1100
0000
0110
0000
0000
0000
0000
0000
;
